<?xml version="1.0" standalone="no"?>
<!DOCTYPE svg PUBLIC "-//W3C//DTD SVG 1.1//EN" "http://www.w3.org/Graphics/SVG/1.1/DTD/svg11.dtd" >
<svg xmlns="http://www.w3.org/2000/svg">
<metadata>Generated by IcoMoon</metadata>
<defs>
<font id="icofont-marinalachen" horiz-adv-x="1024">
<font-face units-per-em="1024" ascent="960" descent="-64" />
<missing-glyph horiz-adv-x="1024" />
<glyph unicode="&#x20;" horiz-adv-x="512" d="" />
<glyph unicode="&#xe900;" glyph-name="arrow-down" horiz-adv-x="1593" d="M741.229 182.677c0 0-145.38 147.65-436.14 442.967-33.728 34.254-33.728 89.789 0 124.022s88.4 34.233 122.115 0l375.072-387.856 375.072 387.856c33.728 34.233 88.4 34.233 122.115 0 16.864-17.124 25.296-39.58 25.296-62.009 0-22.444-8.432-44.884-25.296-62.009l-436.109-442.946c0 0-20.356-20.68-61.068-62.024l-61.057 62.009z" />
<glyph unicode="&#xe901;" glyph-name="arrow-left" horiz-adv-x="709" d="M60.767 507.823c0 0 144.694 142.464 434.083 427.391 33.565 33.048 87.983 33.048 121.534 0s33.55-86.627 0-119.66l-380.076-367.554 380.076-367.554c33.55-33.048 33.55-86.627 0-119.66-16.783-16.524-38.782-24.786-60.767-24.786-22 0-43.984 8.262-60.767 24.786l-434.068 427.362c0 0-20.261 19.948-60.782 59.845l60.767 59.83z" />
<glyph unicode="&#xe902;" glyph-name="arrow-right" horiz-adv-x="709" d="M580.78 388.177c0 0-144.694-142.464-434.083-427.391-33.565-33.048-87.983-33.048-121.534 0s-33.55 86.627 0 119.66l380.076 367.554-380.076 367.554c-33.55 33.048-33.55 86.627 0 119.66 16.783 16.524 38.782 24.786 60.767 24.786 22 0 43.984-8.262 60.767-24.786l434.068-427.362c0 0 20.261-19.948 60.782-59.845l-60.767-59.83z" />
<glyph unicode="&#xe903;" glyph-name="arrow-up" horiz-adv-x="1593" d="M863.323 713.323c0 0 145.38-147.65 436.14-442.967 33.728-34.254 33.728-89.789 0-124.022s-88.4-34.233-122.115 0l-375.072 387.856-375.072-387.856c-33.728-34.233-88.4-34.233-122.115 0-16.864 17.124-25.296 39.58-25.296 62.009 0 22.444 8.432 44.884 25.296 62.009l436.109 442.946c0 0 20.356 20.68 61.068 62.024l61.057-62.009z" />
<glyph unicode="&#xe904;" glyph-name="calendar" d="M905.826 566.154c0.013 90.976 0.020 157.379 0.020 157.379 0 0.027-27.36 0.051-98.462 0.071v-39.18c0-21.815-17.481-39.5-39.385-39.5-21.752 0-59.077 17.665-59.077 39.5v39.199c-120.295 0.025-273.587 0.043-393.846 0.054v-39.254c0-21.815-37.174-39.5-59.077-39.5-21.752 0-39.385 17.665-39.385 39.5v39.261c-70.993 0.006-98.267 0.009-98.267 0.009-0.040 0-0.074-66.48-0.102-157.538h787.58zM905.814 448h-787.589c-0.047-175.151-0.071-393.701-0.071-393.701 0-0.102 787.498-0.145 787.498-0.145 0.076 0 0.131 218.671 0.163 393.846zM810.667 832h127.789c47.245 0 85.544-38.213 85.544-85.506v-724.987c0-47.224-38.273-85.506-85.544-85.506h-852.911c-47.245 0-85.544 38.213-85.544 85.506v724.987c0 47.224 38.273 85.506 85.544 85.506h127.789v85.208c0 23.633 18.938 42.792 42.667 42.792 23.564 0 42.667-19.137 42.667-42.792v-85.208h426.667v85.208c0 23.633 18.938 42.792 42.667 42.792 23.564 0 42.667-19.137 42.667-42.792v-85.208z" />
<glyph unicode="&#xe905;" glyph-name="close" d="M23.294-39.968c15.020-15.020 36.048-24.032 57.077-24.032s40.554 7.51 57.077 24.032l375.504 375.504 375.504-375.504c15.020-15.020 36.048-24.032 57.077-24.032s40.554 7.51 57.077 24.032c31.542 31.542 31.542 82.611 0 112.651l-375.504 375.504 375.504 375.504c31.542 31.542 31.542 82.611 0 112.651-31.542 31.542-81.109 31.542-112.651 0l-375.504-375.504-375.504 375.504c-31.542 31.542-81.109 31.542-112.651 0s-31.542-82.611 0-112.651l375.504-375.504-375.504-375.504c-34.546-31.542-34.546-81.109-3.004-112.651z" />
<glyph unicode="&#xe906;" glyph-name="cutlery" horiz-adv-x="973" d="M448.902 154.386l-116.174-176.607c-13.711-20.713-35.102-35.117-59.451-40.034-5.783-1.154-11.665-1.738-17.562-1.745-17.185-0.041-33.985 5.091-48.215 14.726-20.322 13.586-34.013 35.074-37.743 59.233-3.856 24.077 2.335 48.682 17.126 68.068l159.808 207.259c7.38 9.549 21.104 11.307 30.653 3.927s11.307-21.104 3.927-30.653l-159.808-207.259c-7.495-9.88-10.574-22.419-8.509-34.647s9.092-23.060 19.417-29.93c9.613-6.425 21.41-8.706 32.725-6.327 12.903 2.586 24.246 10.2 31.525 21.162l115.738 176.825c6.714 9.835 20.074 12.468 30.019 5.918s12.8-19.865 6.415-29.917h0.109zM907.927 936.299c-40.688 29.016-95.994 31.198-155.554 6-61.419-28.066-114.029-72.341-152.172-128.064-55.196-77.45-81.049-166.135-69.050-237.257 2.656-16.463 1.194-33.327-4.254-49.088-2.514-7.385-0.896-15.55 4.242-21.42s13.019-8.552 20.671-7.036c7.653 1.516 13.915 6.999 16.429 14.384 7.773 22.599 9.834 46.77 6 70.359-9.927 59.123 13.635 137.555 61.523 204.75 33.353 49.097 79.431 88.2 133.3 113.12 45.161 18.981 85.304 18.544 113.229-1.418s41.561-57.705 38.288-106.575c-5.953-59.067-27.861-115.402-63.378-162.971-47.451-67.305-114.429-115.193-173.552-125.010-23.089-3.974-44.872-13.481-63.487-27.707-5.085-3.884-9.93-8.074-14.508-12.545-7.939-8.519-7.787-21.772 0.344-30.108s21.377-8.816 30.090-1.090c3.443 3.243 7.086 6.267 10.908 9.054 12.946 9.939 28.103 16.601 44.179 19.417 71.232 11.89 146.609 65.45 201.914 142.682 40.208 54.182 64.908 118.289 71.45 185.443 3.927 64.469-16.144 116.065-56.615 145.082zM431.776 539.561c-1.011 1.795-1.011 3.987 0 5.781 19.338 43.706 14.197 94.37-13.526 133.3l-194.824 271.837c-4.461 6.538-12.114 10.147-19.996 9.43s-14.759-5.646-17.968-12.881c-3.209-7.235-2.248-15.641 2.512-21.965l194.606-271.837c18.783-26.338 22.267-60.635 9.163-90.212-7.499-16.479-5.363-35.742 5.563-50.179l359.977-465.57c9.679-12.132 11.879-28.614 5.719-42.86s-19.674-23.933-35.144-25.191c-15.469-1.258-30.372 6.118-38.752 19.181l-326.597 489.787c-10.103 15.138-27.695 23.515-45.815 21.817-32.224-2.97-63.621 11.297-82.576 37.525l-194.278 271.182c-4.461 6.538-12.114 10.147-19.996 9.43s-14.759-5.646-17.968-12.881c-3.209-7.235-2.248-15.641 2.512-21.965l194.497-271.728c28.011-38.847 74.488-59.969 122.174-55.524 2.057 0.321 4.13-0.467 5.454-2.073l326.161-489.677c12.79-19.412 32.974-32.737 55.851-36.87 5.146-0.943 10.367-1.417 15.599-1.418 32.615 0.089 62.347 18.698 76.682 47.993s10.784 64.191-9.159 89.998l-359.868 465.57zM292.367 598.248c8.15-0.015 15.628 4.513 19.391 11.742s3.184 15.952-1.502 22.62l-177.807 253.947c-4.462 6.391-11.995 9.917-19.762 9.248s-14.586-5.43-17.89-12.49c-3.304-7.060-2.59-15.347 1.872-21.738l177.807-253.947c4.069-5.866 10.751-9.369 17.89-9.381z" />
<glyph unicode="&#xe907;" glyph-name="facebook" d="M575.173-63.413v466.825h156.691l23.462 181.933h-180.153v116.153c0 52.674 14.626 88.567 90.155 88.567l96.336 0.042v162.723c-16.655 2.218-73.841 7.171-140.378 7.171-138.897 0-233.99-84.784-233.99-240.485v-134.17h-157.094v-181.933h157.094v-466.828h187.876z" />
<glyph unicode="&#xe908;" glyph-name="tiktok" d="M905.038 720.111c-104.929 22.445-183.102 110.468-192.997 217.313v22.576h-176.359v-699.908c-0.224-63.533-40.904-119.86-101.144-140.048s-126.647 0.251-165.109 50.819v0c-39.092 51.457-40.336 122.312-3.073 175.11s104.44 75.364 166.020 55.77v179.175c-137.188 18.965-271.261-51.364-333.64-175.012s-39.271-273.273 57.506-372.341c92.080-94.215 232.032-123.309 354.031-73.597s201.761 168.334 201.769 300.073v357.633c71.273-50.954 156.73-78.276 244.343-78.12v175.233c-17.254-0.021-34.463 1.763-51.346 5.324z" />
<glyph unicode="&#xe909;" glyph-name="Instagram" d="M511.193 958.387c-138.832 0-156.24-0.585-210.763-3.076-54.413-2.485-91.573-11.125-124.085-23.76-33.617-13.063-62.126-30.543-90.544-58.962s-45.899-56.929-58.96-90.544c-12.642-32.517-21.282-69.677-23.763-124.088-2.489-54.523-3.076-71.929-3.076-210.76 0-138.836 0.587-156.242 3.076-210.765 2.48-54.411 11.121-91.571 23.763-124.088 13.061-33.615 30.541-62.126 58.96-90.544s56.927-45.899 90.544-58.962c32.513-12.635 69.672-21.275 124.085-23.76 54.523-2.487 71.931-3.076 210.763-3.076s156.242 0.589 210.765 3.076c54.411 2.485 91.571 11.125 124.085 23.76 33.617 13.063 62.123 30.543 90.542 58.962s45.899 56.929 58.962 90.544c12.64 32.517 21.28 69.677 23.763 124.088 2.489 54.523 3.074 71.929 3.074 210.765 0 138.832-0.585 156.237-3.074 210.76-2.483 54.411-11.123 91.571-23.763 124.088-13.063 33.615-30.543 62.126-58.962 90.544s-56.925 45.899-90.542 58.962c-32.515 12.635-69.675 21.275-124.085 23.76-54.523 2.492-71.933 3.076-210.765 3.076zM511.193 866.28c136.494 0 152.659-0.52 206.566-2.978 49.84-2.274 76.908-10.605 94.921-17.603 23.863-9.274 40.893-20.352 58.778-38.24 17.892-17.89 28.97-34.917 38.24-58.778 6.998-18.013 15.329-45.083 17.603-94.921 2.458-53.907 2.98-70.071 2.98-206.566 0-136.499-0.522-152.663-2.98-206.566-2.274-49.842-10.605-76.912-17.603-94.925-9.27-23.859-20.348-40.888-38.24-58.778-17.885-17.888-34.915-28.966-58.778-38.238-18.013-7-45.081-15.331-94.921-17.601-53.898-2.463-70.060-2.98-206.566-2.98s-152.668 0.518-206.566 2.98c-49.838 2.27-76.908 10.601-94.921 17.601-23.861 9.272-40.891 20.35-58.778 38.238-17.885 17.89-28.963 34.919-38.238 58.778-7 18.013-15.329 45.083-17.605 94.925-2.456 53.902-2.978 70.067-2.978 206.566 0 136.494 0.522 152.659 2.978 206.566 2.277 49.838 10.605 76.908 17.605 94.921 9.274 23.861 20.352 40.888 38.238 58.778 17.888 17.888 34.917 28.966 58.778 38.24 18.013 6.998 45.083 15.329 94.921 17.603 53.907 2.458 70.071 2.978 206.566 2.978zM511.193 276.797c-94.107 0-170.399 76.289-170.399 170.399 0 94.107 76.291 170.396 170.399 170.396 94.109 0 170.399-76.289 170.399-170.396 0-94.109-76.289-170.399-170.399-170.399zM511.193 709.698c-144.976 0-262.503-117.529-262.503-262.503 0-144.98 117.527-262.505 262.503-262.505s262.503 117.525 262.503 262.505c0 144.973-117.527 262.503-262.503 262.503zM845.414 720.070c0-33.877-27.464-61.344-61.344-61.344-33.877 0-61.344 27.467-61.344 61.344 0 33.879 27.467 61.344 61.344 61.344 33.879 0 61.344-27.464 61.344-61.344z" />
<glyph unicode="&#xe90a;" glyph-name="magnifier" d="M416 960c-229.389 0-416-186.624-416-416s186.611-416 416-416c79.987 0 154.726 22.746 218.214 62.016l225.894-225.907c18.138-18.125 42.253-28.109 67.891-28.109s49.741 9.984 67.878 28.109c18.138 18.125 28.122 42.253 28.122 67.891s-9.984 49.754-28.122 67.878l-225.907 225.907c39.283 63.488 62.029 138.227 62.029 218.214 0 229.376-186.611 416-416 416zM421.647 237.176c-166.062 0-301.176 135.101-301.176 301.176s135.114 301.176 301.176 301.176c166.062 0 301.176-135.101 301.176-301.176s-135.114-301.176-301.176-301.176z" />
<glyph unicode="&#xe90b;" glyph-name="mail" horiz-adv-x="1733" d="M1629.091 960h-1582.545c-26.065 0-46.545-20.48-46.545-46.545v-930.909c0-26.065 20.48-46.545 46.545-46.545h1582.545c26.065 0 46.545 20.48 46.545 46.545v930.909c0 26.065-20.48 46.545-46.545 46.545zM1467.113 866.909l-629.295-355.607-629.294 355.607h1258.589zM1554.618 57.018h-1433.6v727.971l693.504-418.454c7.168-5.187 16.128-6.917 23.296-6.917s16.128 1.729 23.296 6.917l693.504 418.454v-727.971z" />
<glyph unicode="&#xe90c;" glyph-name="moon" d="M839.914 151.225c-80.908-81.751-192.83-131.099-314.125-131.099-243.923 0-441.662 197.739-441.662 441.662 0 129.006 55.821 247.408 147.077 329.173 42.122 37.741 70.219 51.122 70.219 51.122-4.629-28.17-6.981-56.858-6.981-85.854 0-290.385 235.403-525.788 525.788-525.788 29.198 0 58.083 2.385 86.442 7.078 0 0-21.896-40.964-66.759-86.294zM967.803 339.811c-46.949-16.639-96.643-25.244-147.573-25.244-243.923 0-441.662 197.739-441.662 441.662 0 50.93 8.605 100.624 25.244 147.573 11.824 33.363-20.335 65.522-53.698 53.698-208.17-73.775-350.114-271.255-350.114-495.712 0-290.385 235.403-525.788 525.788-525.788 224.457 0 421.937 141.944 495.712 350.114 11.824 33.363-20.335 65.522-53.698 53.698z" />
<glyph unicode="&#xe90d;" glyph-name="navigation" horiz-adv-x="1270" d="M96.189 766.063c-53.126 0-96.189 43.412-96.189 96.968s43.063 96.968 96.189 96.968h1077.381c53.126 0 96.189-43.412 96.189-96.968s-43.063-96.968-96.189-96.968h-1077.381zM1173.571 544.968c53.126 0 96.189-43.412 96.189-96.968s-43.063-96.968-96.189-96.968h-1077.381c-53.126 0-96.189 43.412-96.189 96.968s43.063 96.968 96.189 96.968h1077.381zM1173.571 129.937c53.126 0 96.189-43.412 96.189-96.968s-43.063-96.968-96.189-96.968h-1077.381c-53.126 0-96.189 43.412-96.189 96.968s43.063 96.968 96.189 96.968h1077.381z" />
<glyph unicode="&#xe90e;" glyph-name="person" d="M694.995 464.798c60.234 51.692 98.599 128.182 98.599 213.599 0 155.28-126.322 281.602-281.602 281.602s-281.602-126.341-281.602-281.602c0-85.418 38.364-161.907 98.599-213.599-192.079-73.875-328.987-259.824-328.987-477.603 0-28.276 22.919-51.195 51.195-51.195h921.609c28.276 0 51.195 22.919 51.195 51.195 0 217.778-136.926 403.728-329.005 477.603zM332.798 678.398c0 98.819 80.392 179.193 179.193 179.193s179.193-80.392 179.193-179.193c0-98.801-80.374-179.212-179.193-179.212s-179.193 80.392-179.193 179.212zM105.576 38.391c25.276 201.781 197.897 358.405 406.415 358.405s381.14-156.624 406.415-358.405h-812.831z" />
<glyph unicode="&#xe90f;" glyph-name="phone" horiz-adv-x="1081" d="M81.905 959.998c-44.94-4.22-81.030-39.994-81.905-83.428 9.818-294.39 103.019-531.426 272.38-693.711s412.481-247.372 714.284-246.856c49.524-0.219 83.653 41.624 84.571 83.809 0.501 69.559 1.040 139.283 1.524 208.76 0 48.539-43.988 80.035-84.571 80.381-62.512-0.244-149.667 22.475-220.19 39.999-12.041 2.91-25.47-0.817-34.286-9.523l-116.19-112.762c-139.971 84.053-204.083 145.987-290.285 281.522l115.428 111.619c9.342 9.026 13.281 23.265 9.905 35.809-19.006 71.149-50.337 163.851-45.333 228.952-4.952 50.823-53.177 75.701-91.428 75.428-81.419 0.001-164.203-0.001-233.904 0.001v0zM70.554 898.763c79.82 0 159.873 0 239.58 0 12.038-0.229 12.038-0.229 17.862-11.272-2.213-80.066 24.038-160.951 41.936-223.117l-123.479-120.499c-12.029-11.694-14.578-31.94-5.825-46.256 106.21-172.344 184.975-248.818 361.894-352.166 13.917-8.098 33.085-5.762 44.654 5.442l124.644 121.664c67.604-17.098 148.716-38.387 222.495-38.093 5.349-1.008 10.616-8.589 11.261-9.329l-1.553-210.678c-2.593-6.072 1.554-11.501-13.979-11.272-292.466 0-518.152 81.703-674.086 231.279-156.359 149.984-245.192 370.396-254.724 656.523 0.001 7.545 0.001 7.545 9.319 7.774z" />
<glyph unicode="&#xe910;" glyph-name="pillow" horiz-adv-x="1357" d="M525.182 586.441c46.879 7.325 99.617 13.185 150.891 17.579 71.050 5.86 138.439 9.522 181.655 9.522 16.847 0 37.356-0.732 60.796-1.465l-1.465 7.325c-11.72 67.388-26.369 115.732-41.751 164.808-3.662 11.72-7.325 24.172-10.987 35.159v0.732c-4.395 13.917 2.93 29.299 16.847 33.694 6.592 2.197 11.72 6.592 14.65 11.72 3.662 5.86 4.395 11.72 3.662 19.044-1.465 7.325-5.86 13.185-10.987 16.847-5.86 4.395-13.185 5.86-20.509 4.395-5.86-0.732-11.72-4.395-15.382-8.79-4.395-4.395-6.592-10.255-6.592-16.847-0.732-13.917-12.452-25.637-27.102-25.637-49.809 0-110.604-3.662-168.47-8.79-69.586-6.592-134.776-14.65-176.527-21.974s-105.477-21.974-172.865-39.554c-55.668-15.382-112.802-32.229-160.413-49.809h-0.732c-13.917-5.127-29.299 1.465-34.427 15.382-2.197 5.86-6.592 10.255-11.72 13.185s-10.987 4.395-17.579 3.662c0 0-0.732-0.732-1.465-0.732-6.592-1.465-12.452-5.127-16.115-10.255-3.662-5.86-5.86-12.452-4.395-19.777v-1.465c1.465-6.592 4.395-11.72 9.522-15.382 4.395-3.662 10.255-5.86 16.847-5.86 14.65 0.732 27.102-10.255 27.834-25.637 0.732-11.72 1.465-24.904 2.197-38.089 2.93-52.006 5.127-101.815 17.579-169.203 11.72-68.853 26.369-117.197 42.484-167.738 4.395-13.917 8.057-27.834 10.255-35.159 4.395-13.917-2.93-28.567-16.847-32.962-6.592-2.197-11.72-6.592-14.65-11.72-3.662-5.86-4.395-11.72-3.662-19.044 1.465-7.325 5.86-13.185 10.987-16.847 5.86-4.395 13.185-5.86 20.509-4.395 6.592 0.732 11.72 4.395 15.382 8.79 4.395 5.127 6.592 10.987 6.592 17.579 0 14.65 11.72 26.369 27.102 26.369 27.834 0 60.063 1.465 93.025 2.93 27.834 2.197 56.401 4.395 84.235 6.592 0 8.79 0 17.579 0 27.102 0 71.050 6.592 123.056 13.185 175.795l1.465 16.847c-8.79 4.395-16.847 10.987-23.439 18.312-12.452 14.65-19.777 32.962-19.777 52.738 0 21.974 8.79 42.484 23.439 57.133s35.159 23.439 57.133 23.439c19.044 0 36.624-6.592 50.541-18.312 7.325-5.86 13.917-13.185 19.044-21.242zM274.674 379.882c4.395-14.65-3.662-29.299-18.312-33.694-13.917-4.395-28.567 3.662-32.962 18.312l-6.592 20.509c-9.522 32.229-19.044 62.993-26.369 106.209-8.057 42.484-9.522 73.98-10.987 106.209l-1.465 22.707c-0.732 14.65 10.255 27.834 25.637 28.567 14.65 0.732 27.102-10.255 27.834-24.904l1.465-23.439c1.465-30.764 2.93-60.063 10.255-100.35s16.115-69.586 24.904-98.885l6.592-21.242zM93.019 204.82c-3.662 19.777 0.732 38.821 10.255 54.936 5.127 8.79 12.452 16.847 20.509 22.707l-4.395 14.65c-16.115 52.006-31.497 102.547-43.949 173.598-12.452 70.318-15.382 122.324-18.312 175.795l-0.732 16.847c-9.522 2.93-19.044 8.057-27.102 13.917-13.917 12.452-24.904 28.567-27.834 48.344v0.732c-4.395 21.242 1.465 42.484 13.185 59.331s30.032 29.299 51.274 32.962l0.732 0.732h0.732c18.312 2.93 36.624-0.732 52.006-9.522 8.79-4.395 16.115-10.987 21.974-17.579 45.414 15.382 96.687 30.032 146.496 43.216 68.121 18.312 134.044 33.694 177.26 41.019 42.484 7.325 109.872 16.115 180.19 22.707 50.541 4.395 104.012 7.325 152.356 8.057 2.93 9.522 8.057 17.579 14.65 24.904 11.72 13.185 27.834 23.439 46.879 26.369 21.242 4.395 42.484-1.465 60.063-13.185 16.847-11.72 29.299-30.032 32.962-52.006 3.662-19.777-0.732-38.821-10.255-54.936-5.127-8.79-12.452-16.847-20.509-22.707l5.127-16.115c15.382-51.274 30.764-101.082 43.216-171.4 0.732-3.662 2.197-10.255 2.93-19.044 21.974-1.465 43.949-2.93 66.656-5.127 51.274-4.395 104.012-10.255 151.623-17.579 4.395 8.057 10.987 15.382 18.312 21.242 13.917 11.72 31.497 18.312 50.541 18.312 22.707 0 42.484-8.79 57.133-23.439l1.465-2.197c13.917-13.917 21.974-33.694 21.974-54.936 0-19.777-7.325-38.089-19.777-52.738-6.592-7.325-14.65-13.917-23.439-18.312l2.197-16.847c6.592-52.738 12.452-104.745 12.452-175.795 0-72.515-5.86-124.521-13.185-178.725l-1.465-15.382c8.79-4.395 16.847-10.987 23.439-19.044 12.452-13.917 19.777-32.229 19.777-52.006 0-22.707-8.79-42.484-23.439-57.133s-34.427-23.439-57.133-23.439c-19.044 0-37.356 6.592-51.274 18.312-7.325 6.592-13.917 13.917-18.312 22.707-46.879-8.057-100.35-13.917-150.891-18.312-71.050-5.86-138.439-9.522-181.655-9.522s-110.604 3.662-181.655 9.522c-50.541 4.395-103.28 10.255-150.891 18.312-4.395-8.79-10.987-16.115-18.312-22.707-13.917-11.72-31.497-18.312-51.274-18.312-21.974 0-42.484 8.79-57.133 23.439s-23.439 34.427-23.439 57.133c0 19.777 7.325 38.089 19.777 52.006 6.592 8.057 14.65 14.65 24.172 19.044l-2.197 15.382c-3.662 31.497-8.057 62.993-10.255 98.152-27.834-2.197-56.401-4.395-84.235-6.592-24.904-1.465-49.809-2.197-73.98-2.93-3.662-8.79-8.057-17.579-14.65-24.904-11.72-13.917-27.834-24.172-47.611-27.102-21.242-4.395-43.216 1.465-60.063 13.185s-29.299 30.032-32.962 52.006zM584.513 157.209c1.465-14.65-8.79-28.567-23.439-30.032s-28.567 8.79-30.032 23.439l-2.93 21.974c-3.662 32.962-8.057 64.458-8.057 108.407s4.395 74.713 8.057 106.942l2.93 22.707c1.465 14.65 14.65 25.637 29.299 23.439 15.382-1.465 25.637-14.65 24.172-29.299-1.465-10.987-2.197-16.847-2.93-22.707-3.662-30.764-7.325-60.063-7.325-101.082 0-40.286 3.662-71.050 7.325-101.815l2.93-21.974zM680.467 550.55c-57.866-5.127-117.197-11.72-167.738-20.509-13.917-2.93-27.834 6.592-30.764 21.242-1.465 5.86-4.395 10.987-9.522 15.382-4.395 3.662-10.255 5.86-16.847 5.86-7.325 0-13.917-2.93-19.044-8.057s-8.057-11.72-8.057-19.044c0-6.592 2.93-12.452 6.592-17.579 4.395-4.395 10.255-8.057 16.847-8.79 13.917-2.197 24.172-15.382 22.707-29.299-2.197-16.115-3.662-27.834-5.127-38.821-5.86-51.274-12.452-101.082-12.452-169.203 0-69.586 6.592-120.127 13.185-172.133 0.732-10.987 2.197-21.974 4.395-37.356 1.465-13.917-8.79-27.102-22.707-29.299-6.592-0.732-12.452-4.395-16.847-8.79-3.662-5.127-6.592-10.987-6.592-17.579 0-8.057 2.93-14.65 8.057-19.044 5.127-5.127 11.72-8.057 19.044-8.057 6.592 0 12.452 2.197 16.847 5.86s8.057 8.79 9.522 14.65v1.465c2.197 14.65 16.115 24.172 30.764 21.242 50.541-8.057 110.604-15.382 168.47-20.509 68.853-5.86 134.776-8.79 176.527-8.79 42.484 0 107.674 2.93 177.26 8.79 57.866 5.127 117.929 12.452 167.738 20.509 14.65 2.93 28.567-6.592 30.764-21.242 1.465-6.592 4.395-11.72 9.522-16.115 4.395-3.662 10.255-5.86 16.847-5.86 8.057 0 14.65 2.93 19.044 8.057 5.127 4.395 8.057 10.987 8.057 19.044 0 6.592-2.197 12.452-6.592 17.579-3.662 4.395-9.522 7.325-16.115 8.79-13.917 1.465-24.904 14.65-22.707 29.299 1.465 15.382 2.93 26.369 4.395 37.356 6.592 52.006 12.452 102.547 12.452 172.133 0 68.121-5.86 117.929-12.452 169.203-1.465 10.987-2.93 21.974-4.395 38.089-2.197 14.65 8.057 27.834 22.707 30.032 6.592 0.732 12.452 4.395 16.115 8.79 4.395 5.127 6.592 10.987 6.592 17.579 0 7.325-2.197 13.185-6.592 18.312l-1.465 0.732c-4.395 5.127-10.987 8.057-19.044 8.057-5.86 0-12.452-2.197-16.847-5.86s-7.325-8.79-8.79-13.917v-1.465c-2.93-13.917-16.847-24.172-31.497-21.242-49.809 8.79-109.872 15.382-167.738 20.509-68.853 5.86-134.776 9.522-177.26 9.522-41.751 0-107.674-3.662-177.26-9.522z" />
<glyph unicode="&#xe911;" glyph-name="position" horiz-adv-x="796" d="M401.223-64h-34.879c-14.921 15.832-366.345 390.525-366.345 648.924 0 206.825 172.186 375.076 383.808 375.076s383.808-168.252 383.808-375.076c0-258.399-351.424-633.091-366.393-648.924zM387.161 886.204c-172.798 0-313.365-137.494-313.365-306.451 0-195.206 246.931-484.757 313.365-559.145 66.433 74.388 313.365 364.118 313.365 559.145 0 168.957-140.611 306.451-313.365 306.451zM380.454 395.845c-101.298 0-183.701 82.403-183.701 183.702s82.403 183.701 183.701 183.701c101.298 0 183.702-82.403 183.702-183.701s-82.403-183.702-183.702-183.702zM383.808 696.132c-66.111 0-119.94-53.829-119.94-119.94s53.829-119.94 119.94-119.94c66.159 0 119.94 53.829 119.94 119.94s-53.781 119.94-119.94 119.94z" />
<glyph unicode="&#xe912;" glyph-name="quote1" horiz-adv-x="1311" d="M537.484 960v-46.335c0-176.073-26.256-343.649-78.769-502.733s-131.282-317.393-236.308-474.932l-222.407 101.937c77.225 148.272 130.51 284.186 159.855 407.747s44.018 239.396 44.018 347.511v88.036c0 24.712-1.544 50.968-4.633 78.769h338.244zM1288.109 960v-46.335c0-176.073-26.256-343.649-78.769-502.733s-131.282-317.393-236.308-474.932l-222.407 101.937c77.225 148.272 130.51 284.186 159.855 407.747s44.018 239.396 44.018 347.511v88.036c0 24.712-1.544 50.968-4.633 78.769h338.244z" />
<glyph unicode="&#xe913;" glyph-name="quote2" horiz-adv-x="1311" d="M0-17.665c0 176.073 26.256 343.649 78.769 502.733s131.282 317.393 236.308 474.932l222.407-101.937c-77.225-148.272-130.51-284.186-159.855-407.747s-44.018-239.396-44.018-347.511v-88.036c0-24.712 1.544-50.968 4.634-78.769h-338.244v46.335zM750.624-17.665c0 176.073 26.256 343.649 78.769 502.733s131.282 317.393 236.308 474.932l222.407-101.937c-77.225-148.272-130.51-284.186-159.855-407.747s-44.018-239.396-44.018-347.511v-88.036c0-24.712 1.544-50.968 4.633-78.769h-338.244v46.335z" />
<glyph unicode="&#xe914;" glyph-name="service" horiz-adv-x="1775" d="M770.272 959.955c-14.148-0.683-26.868-9.122-33.368-22.139s-5.793-28.631 1.856-40.961c7.649-12.33 21.077-19.502 35.224-18.813h59.391v-123.509c-385.237-20.67-692.89-342.617-692.89-736.575h-98.984c-1.237 0.060-2.475 0.060-3.712 0-14.147-0.683-26.867-9.123-33.367-22.139s-5.792-28.631 1.856-40.961c7.649-12.33 21.076-19.502 35.223-18.813h1662.935c14.279-0.209 27.56 7.551 34.758 20.309s7.198 28.537 0 41.294c-7.198 12.758-20.48 20.518-34.758 20.309h-98.984c0 393.958-307.653 715.905-692.89 736.575v123.509h59.391c14.279-0.209 27.56 7.551 34.759 20.309s7.198 28.537 0 41.294c-7.198 12.758-20.48 20.518-34.759 20.309h-197.969c-1.237 0.060-2.475 0.060-3.712 0zM872.968 673.26c361.886 0 653.296-293.555 653.296-655.302h-1306.592c0 361.747 291.41 655.302 653.296 655.302z" />
<glyph unicode="&#xe915;" glyph-name="star" horiz-adv-x="1117" d="M664.796 938.555c0-75.058-6.702-146.987-20.105-215.791s-27.253-139.839-41.55-213.11c64.335 35.742 127.776 70.59 190.325 104.545s130.457 63.441 203.728 88.461l16.084 5.361 75.058-225.173-21.445-8.042c-71.484-26.806-142.966-44.23-214.45-52.272s-144.754-14.743-219.812-20.105c58.974-50.039 114.373-98.736 166.199-146.094s100.077-102.31 144.754-164.859l13.403-18.764-195.686-136.712-10.723 16.084c-42.89 64.335-79.972 128.223-111.246 191.665s-62.995 129.117-95.162 197.026c-32.168-67.91-63.888-133.584-95.162-197.026s-68.356-127.33-111.246-191.665l-10.723-16.084-195.686 136.712 13.403 18.764c44.677 62.548 92.928 117.501 144.754 164.859s107.225 96.056 166.199 146.094c-75.058 5.361-148.328 12.063-219.812 20.105s-142.966 25.466-214.45 52.272l-21.445 8.042 75.058 225.173 16.084-5.361c73.271-25.019 141.179-54.506 203.728-88.461s125.989-68.803 190.325-104.545c-14.297 73.271-28.147 144.307-41.55 213.11s-20.105 140.733-20.105 215.791v21.445h241.257v-21.445z" />
<glyph unicode="&#xe916;" glyph-name="wave-arrow" horiz-adv-x="2999" d="M2666.376 376.134c-149.784-6.876-297.813-45.121-497.592-116.972-19.327-6.951-102.451-37.296-124.216-45.096-47.555-17.043-85.042-29.732-120.749-40.595-91.278-27.771-166.885-41.98-238.873-41.98-87.119 0-163.924 30.19-235.633 86.051-50.583 39.404-87.577 79.344-156.988 162.993 1.059-1.276-9.982 12.034-12.928 15.581-108.342 130.429-162.782 172.902-236.778 172.902-90.759 0-161.586-64.226-288.868-243.918-4.315-6.091-19.113-27.032-19.951-28.216-8.014-11.33-14.162-19.985-20.175-28.385-56.938-79.547-97.235-128.803-143.151-169.738-63.822-56.898-131.571-88.287-207.418-88.287-127.475 0-221.020 87.019-278.593 240.546-50.454 134.543-78.016 329.104-84.436 585.869 4.854 50.856 30.888 76.331 78.1 76.425s77.016-23.985 89.411-72.237c5.993-239.719 31.182-417.522 73.819-531.222 35.518-94.715 75.403-131.818 121.698-131.818 58.811 0 116.685 51.595 214.313 187.99 5.799 8.102 11.782 16.525 19.631 27.621 0.79 1.117 15.636 22.125 20.015 28.307 71.888 101.489 115.267 155.827 170.197 205.637 77.626 70.392 160.935 108.99 255.407 108.99 80.113 0 151.19-28.216 217.98-80.323 47.291-36.895 83.77-76.119 147.694-153.074 2.989-3.599 14.077-16.966 12.983-15.647 118.47-142.772 177.149-188.483 263.67-188.483 52.871 0 113.283 11.353 190.1 34.725 32.669 9.939 67.783 21.825 112.992 38.027 21.171 7.587 104.176 37.888 124.038 45.032 128.051 46.053 221.601 74.892 322.523 96.276 70.893 15.021 140.565 24.854 210.098 29.067l-254.256 261.711c-34.575 35.589-34.575 93.826 0 129.415s91.153 35.589 125.729 0l408.619-420.6c17.812-18.334 26.194-40.982 26.194-64.708s-8.382-46.374-26.194-64.708l-408.619-420.6c-34.575-35.589-91.153-35.589-125.729 0s-34.575 93.826 0 129.415l275.935 284.026z" />
<glyph unicode="&#xe917;" glyph-name="wave" horiz-adv-x="3072" d="M1873.15 181.397c27.604 19.060 46.963 35.702 109.192 92.098 59.793 54.187 93.007 81.866 133.611 108.228 59.222 38.45 117.175 59.686 178.587 59.686 117.020 0 213.336-75.833 299.34-197.786 25.935-36.776 48.824-74.92 70.971-116.168 3.799-7.076 7.454-14.013 11.319-21.456 1.462-2.816 2.888-5.574 4.603-8.904 2.051-3.984 3.106-6.033 3.83-7.437 2.439-4.73 38.921-97.185-20.938-137.090-39.906-26.604-77.696-21.163-113.371 16.322-6.515 6.515-10.075 11.482-14.037 17.861-1.5 2.414-2.871 4.799-4.35 7.49-1.84 3.35-3.757 7.005-6.902 13.103-0.765 1.483-1.863 3.617-3.871 7.516-1.633 3.17-2.974 5.764-4.333 8.382-3.508 6.755-6.786 12.978-10.163 19.267-18.975 35.341-38.298 67.542-59.512 97.623-55.454 78.633-110.16 121.705-152.588 121.705-43.863 0-92.478-31.564-191.61-121.401-68.998-62.53-90.937-81.39-127.747-106.807-56.946-39.32-111.253-61.107-169.486-61.107-72.024 0-130.547 43.497-202.083 126.091-23.721 27.387-48.378 58.599-81.253 102.163-6.122 8.112-65.606 87.749-83.62 111.38-140.548 184.375-237.804 268.925-321.414 268.925-97.265 0-173.169-68.83-309.575-261.403-4.624-6.528-20.483-28.97-21.381-30.239-8.588-12.142-15.177-21.418-21.621-30.42-61.019-85.249-104.205-138.036-153.412-181.905-68.397-60.976-141.002-94.616-222.287-94.616-136.613 0-236.863 93.256-298.563 257.789-54.070 144.187-83.609 352.695-90.488 627.865 6.632 61.354 34.152 91.971 82.558 91.851 58.008-0.144 90.328-29.265 96.96-87.363 6.423-256.903 33.417-447.451 79.11-569.3 38.064-101.505 80.808-141.267 130.422-141.267 63.027 0 125.049 55.293 229.676 201.466 6.215 8.683 12.627 17.709 21.038 29.601 0.847 1.197 16.757 23.711 21.449 30.336 77.041 108.764 123.53 166.996 182.397 220.377 83.191 75.437 172.471 116.803 273.715 116.803 92.585 0 179.538-41.883 266.074-117.114 63.156-54.906 122.321-123.044 198.152-222.521 18.658-24.476 78.511-104.607 84.147-112.075 30.648-40.612 53.136-69.078 73.653-92.766 22.497-25.974 41.27-44.44 56.364-55.659 5.555-4.129 10.050-6.855 13.233-8.305 15.516 1.114 36.536 10.083 64.201 29.184z" />
<glyph unicode="&#xe918;" glyph-name="world" d="M351.024 935.208c-40.917-50.661-74.297-118.568-97.985-200.488h-164.745c62.452 93.777 153.977 164.918 262.73 200.488zM316.568 734.72c37.687 119.646 97.985 204.8 165.821 225.28v-225.28h-165.821zM708.509 734.72h-165.821v225.28c67.836-20.48 128.135-105.634 165.821-225.28zM937.859 734.72h-164.744c-23.689 81.92-57.068 150.905-97.985 200.488 107.676-36.648 200.278-107.789 262.73-200.488zM87.218 161.28h164.744c23.689-81.92 57.068-150.905 97.985-200.488-107.676 36.648-200.278 107.789-262.73 200.488zM316.568 161.28h165.821v-225.28c-67.836 20.48-128.135 105.634-165.821 225.28zM542.688 161.28h165.821c-37.687-120.724-97.985-205.878-165.821-225.28v225.28zM674.053-39.208c40.917 50.661 74.297 118.568 97.985 200.488h164.744c-62.452-92.699-153.977-164.918-262.73-200.488zM236.888 674.358c-12.921-60.362-20.458-126.114-23.689-196.177h-213.199c4.307 70.063 22.612 136.893 51.685 196.177h185.203zM482.389 674.358h-1.077v-196.177h-206.738c2.154 70.063 10.768 135.815 24.766 196.177h183.049zM725.737 674.358c13.998-60.362 22.612-126.114 23.689-196.177h-206.738v196.177h183.049zM810.801 478.181c-2.154 70.063-9.691 135.815-23.689 196.177h185.203c29.073-59.284 47.378-126.114 51.685-196.177h-213.199zM214.275 417.819c2.154-70.063 9.691-135.815 23.689-196.177h-185.203c-29.073 60.362-47.378 126.114-51.685 196.177h213.199zM299.34 221.642c-13.998 60.362-22.612 126.114-23.689 196.177h206.738v-196.177h-183.049zM542.688 221.642h1.077v196.177h206.738c-2.154-70.063-10.768-135.815-24.766-196.177h-183.049zM787.112 221.642c13.998 60.362 21.535 126.114 23.689 196.177h213.199c-4.307-70.063-22.612-136.893-51.685-196.177h-185.203zM482.389 960v0zM542.688 960v0zM482.389-64v0zM542.688-64v0z" />
<glyph unicode="&#xe919;" glyph-name="youtube" horiz-adv-x="1365" d="M1109.333 960h-853.333c-140.8 0-256-115.2-256-256v-512c0-140.8 115.2-256 256-256h853.333c140.8 0 256 115.2 256 256v512c0 140.8-115.2 256-256 256zM512 106.667v682.667l426.667-341.333-426.667-341.333z" />
<glyph unicode="&#xe91a;" glyph-name="twitter" horiz-adv-x="1229" d="M1208.4 950c8-5.6 14-13 18-22.2s4.801-19 2.4-29.4c-8-36-20.6-70.4-37.8-103.2s-38.6-63.2-64.2-91.2v-25.2c0-70.4-7.6-137.6-22.8-201.6s-37.4-123.4-66.6-178.2c-29.2-54.8-65-104.2-107.4-148.2s-91.2-81.6-146.4-112.8c-56.801-32.8-115.6-57.2-176.4-73.2s-123.2-24-187.2-24c-32 0-64.4 2.4-97.2 7.2-33.6 4-67 10.6-100.2 19.8s-66.2 20.6-99 34.2c-33.6 12.8-66.4 28.4-98.4 46.8-9.6 4.8-16.8 12.8-21.6 24s-6 22-3.6 32.4c2.4 10.4 9 19 19.8 25.8s21.4 10.2 31.8 10.2c43.2 0 86.2 4 129 12s83.4 20.8 121.8 38.4c-47.2 29.6-86.4 61.6-117.6 96s-56 69.6-74.4 105.6c-18.4 36-31.6 71.6-39.6 106.8-8 36-12.8 70-14.4 102-2.4 73.6 4.8 137.4 21.6 191.4s26.8 82.2 30 84.6c2.4 8 7.2 15.2 14.4 21.6s16 9.6 26.4 9.6c10.4 0 19.4-1.6 27-4.8s13.8-8.4 18.6-15.6c21.6-31.2 46-59.2 73.2-84s56.6-46 88.2-63.6c31.6-17.6 64.6-32 99-43.2 35.2-10.4 71.2-16.8 108-19.2 0 40.8 8.8 79.8 26.4 117s43.2 69.8 76.8 97.8c26.4 23.2 55.6 40 87.6 50.4 32.8 11.2 65.6 16.6 98.4 16.2s64.8-7 96-19.8c32-12 60.8-29.2 86.4-51.6 20 7.2 40.2 16 60.6 26.4s39.4 22 57 34.8c8 4.8 17.4 7.2 28.2 7.2s20.199-2.4 28.2-7.2zM1034.4 755.6c4.801 7.2 9.8 13.8 15 19.8s10.2 13 15 21c-4.801-2.4-10.6-4.2-17.4-5.4s-12.6-3-17.4-5.4c-8-2.4-16.6-2.4-25.8 0s-17.8 7.6-25.8 15.6c-30.4 36-70.799 55.8-121.2 59.4s-93.6-11-129.6-43.8c-20.8-18.4-36.2-39.6-46.199-63.6s-15-48.8-15-74.4v-51.6c0-12.8-5.4-24.6-16.2-35.4s-22.6-16.2-35.4-16.2c-42.4-0.8-84 2.4-124.8 9.6-40 7.2-78.8 18.4-116.4 33.6s-73.2 34-106.8 56.4c-33.6 21.6-64.4 46.4-92.4 74.4-8-32-12.8-70.4-14.4-115.2-2.4-44.8 4.2-91 19.8-138.6s42.6-94.2 81-139.8c39.2-45.6 95.6-84.8 169.2-117.6 8-2.4 15.2-7.4 21.6-15s9.6-16.2 9.6-25.8c0-10.4-1.8-19.4-5.4-27s-10.2-14.2-19.8-19.8c-28.8-20-58.4-37-88.8-51s-62.4-25.8-96-35.4c42.4-10.4 84.4-16.8 126-19.2 42.4-3.2 83.8-2.2 124.2 3s80.2 14.2 119.4 27c38.4 12.8 75.6 29.6 111.6 50.4 46.4 26.4 87.6 58.8 123.6 97.2 36 37.6 66.6 80 91.8 127.2s44.2 98.4 57 153.6c12.8 55.2 19.2 113.6 19.2 175.2 0 4.8-0.2 9.8-0.6 15s-1.8 10.2-4.2 15c0 8 1.2 16.4 3.6 25.2s6.4 16 12 21.6z" />
<glyph unicode="&#xe91b;" glyph-name="linkedin" d="M872.405 87.381h-151.637v237.611c0 56.661-1.152 129.579-79.019 129.579-79.061 0-91.136-61.653-91.136-125.397v-241.792h-151.637v488.619h145.664v-66.603h1.963c20.352 38.4 69.845 78.933 143.787 78.933 153.643 0 182.059-101.12 182.059-232.747v-268.203zM227.712 642.859c-48.811 0-88.021 39.509-88.021 88.107 0 48.555 39.253 88.021 88.021 88.021 48.64 0 88.064-39.467 88.064-88.021 0-48.597-39.467-88.107-88.064-88.107zM303.744 87.381h-152.064v488.619h152.064v-488.619zM948.267 960h-872.704c-41.771 0-75.563-33.024-75.563-73.771v-876.459c0-40.789 33.792-73.771 75.563-73.771h872.576c41.728 0 75.861 32.981 75.861 73.771v876.459c0 40.747-34.133 73.771-75.861 73.771h0.128z" />
<glyph unicode="&#xe91c;" glyph-name="google" d="M532.48 494.080v-139.947h334.507c-10.24-78.507-36.395-135.979-76.245-176.341-48.939-48.939-125.141-102.4-258.261-102.4-205.952 0-366.933 166.101-366.933 372.053s160.981 372.053 366.933 372.053c110.933 0 192.299-43.819 252.032-100.139l98.432 98.432c-83.072 80.768-194.603 142.208-350.464 142.208-282.155 0-519.381-229.845-519.381-512s237.227-512 519.381-512c152.448 0 267.392 50.048 357.248 143.36 92.16 92.16 121.173 222.421 121.173 327.125 0 32.427-2.261 62.592-7.381 87.595h-471.040z" />
</font>
</defs>
</svg>
